TÍTULO ORIGINAL: The Long Kiss GoodNight
AÑO: 1996
DURACIÓN: 134 min.
PAÍS: USA
DIRECTOR: Renny Harlin
REPARTO: Geena Davis, Samuel L. Jackson, Patrick Malahide, Craig Bierko, Brian Cox, Tom Amandes, David Morse
GÉNERO: Acción





SINOPSIS: Samantha Caine, una dulce maestra que padece amnesia, contrata a Mitch Henessey, un detective privado castigado por la fortuna, para que le ayude a descubrir su pasado. Esta búsqueda la hará reencontrarse con su anterior vida, la de una violenta y despiadada agente secreto




Video
ID : 1
Format : AVC
Format/Info : Advanced Video Codec
Format profile : High@L4.1
Format settings, CABAC : Yes
Format settings, ReFrames : 5 frames
Codec ID : V_MPEG4/ISO/AVC
Duration : 2h 0mn
Bit rate : 6 279 Kbps
Width : 1 280 pixels
Height : 528 pixels
Display aspect ratio : 2.40:1
Frame rate : 23.976 fps
Color space : YUV
Chroma subsampling : 4:2:0
Bit depth : 8 bits
Scan type : Progressive
Bits/(Pixel*Frame) : 0.387
Stream size : 5.15 GiB (74%)
Writing library : x264 core 112 r1867 22bfd31
Language : English

Audio #1
ID : 2
Format : AC-3
Format/Info : Audio Coding 3
Mode extension : CM (complete main)
Codec ID : A_AC3
Duration : 2h 0mn
Bit rate mode : Constant
Bit rate : 448 Kbps
Channel(s) : 6 channels
Channel positions : Front: L C R, Side: L R, LFE
Sampling rate : 48.0 KHz
Bit depth : 16 bits
Compression mode : Lossy
Stream size : 386 MiB (5%)
Language : Spanish

Audio #2
ID : 3
Format : DTS
Format/Info : Digital Theater Systems
Codec ID : A_DTS
Duration : 2h 0mn
Bit rate mode : Constant
Bit rate : 1 510 Kbps
Channel(s) : 6 channels
Channel positions : Front: L C R, Side: L R, LFE
Sampling rate : 48.0 KHz
Bit depth : 24 bits
Compression mode : Lossy
Stream size : 1.27 GiB (18%)
Language : English

Text #1
ID : 4
Format : UTF-8
Codec ID : S_TEXT/UTF8
Codec ID/Info : UTF-8 Plain Text
Language : Spanish

Text #2
ID : 5
Format : UTF-8
Codec ID : S_TEXT/UTF8
Codec ID/Info : UTF-8 Plain Text
Language : English

















Contenido Oculto, debes [Solo usuarios registrados a DowntWarez.Com puede ver los links. ] para poder ver lo que hay dentro :)














Contenido Oculto, debes [Solo usuarios registrados a DowntWarez.Com puede ver los links. ] para poder ver lo que hay dentro :)






Contenido Oculto, debes [Solo usuarios registrados a DowntWarez.Com puede ver los links. ] para poder ver lo que hay dentro :)