Resultados 1 al 2 de 2
  1. #1
    Amigo de DW Avatar de eskuak
    Fecha de ingreso
    28 jun, 09
    Mensajes
    965
    Poder de reputación
    499
    AC \ DC Plug Me In [2DVD9]






    MediaInfo DVD 1 :


    General
    Complete name : G:\DVD MUSICA\FullDisc\ACDC_DISC_1\VIDEO_TS\VIDEO_TS.BUP
    Format : DVD Video
    Format profile : Menu
    File size : 8.00 KiB

    Video
    ID : 224 (0xE0)
    Format : MPEG Video
    Format version : Version 2
    Bit rate mode : Variable
    Width : 720 pixels
    Height : 480 pixels
    Display aspect ratio : 4:3
    Frame rate : 29.970 fps
    Standard : NTSC

    General
    Complete name : G:\DVD MUSICA\FullDisc\ACDC_DISC_1\VIDEO_TS\VIDEO_TS.IFO
    Format : DVD Video
    Format profile : Menu
    File size : 8.00 KiB

    Video
    ID : 224 (0xE0)
    Format : MPEG Video
    Format version : Version 2
    Bit rate mode : Variable
    Width : 720 pixels
    Height : 480 pixels
    Display aspect ratio : 4:3
    Frame rate : 29.970 fps
    Standard : NTSC

    General
    Complete name : G:\DVD MUSICA\FullDisc\ACDC_DISC_1\VIDEO_TS\VTS_01_0.BUP
    Format : DVD Video
    Format profile : Program
    File size : 198 KiB

    Video
    ID : 224 (0xE0)
    Format : MPEG Video
    Format version : Version 2
    Bit rate mode : Variable
    Width : 720 pixels
    Height : 480 pixels
    Display aspect ratio : 4:3
    Frame rate : 29.970 fps
    Standard : NTSC

    Audio #1
    ID : 0 (0x0)
    Format : PCM
    Channel(s) : 2 channels
    Sampling rate : 48.0 KHz
    Language : English

    Audio #2

    Audio #3

    Audio #4

    Audio #5

    Audio #6

    Text #1
    ID : 32 (0x20)
    Format : RLE
    Format/Info : Run-length encoding
    Bit depth : 2 bits
    Language : English

    Text #2
    ID : 32 (0x20)
    Format : RLE
    Format/Info : Run-length encoding
    Bit depth : 2 bits
    Language : French

    Text #3
    ID : 32 (0x20)
    Format : RLE
    Format/Info : Run-length encoding
    Bit depth : 2 bits
    Language : German

    Text #4
    ID : 32 (0x20)
    Format : RLE
    Format/Info : Run-length encoding
    Bit depth : 2 bits
    Language : Spanish

    Text #5
    ID : 32 (0x20)
    Format : RLE
    Format/Info : Run-length encoding
    Bit depth : 2 bits
    Language : Italian

    Text #6
    ID : 32 (0x20)
    Format : RLE
    Format/Info : Run-length encoding
    Bit depth : 2 bits
    Language : Dutch

    Menu #1
    List (Audio) : 0
    List (Subtitles 4/3) : 0 / 1 / 2 / 3 / 4 / 5
    List (Subtitles Wide) : 0 / 0 / 0 / 0 / 0 / 0
    List (Subtitles Letterbox) : 0 / 0 / 0 / 0 / 0 / 0
    List (Subtitles Pan&Scan) : 0 / 0 / 0 / 0 / 0 / 0

    Menu #2
    List (Audio) : 0
    List (Subtitles 4/3) : 0 / 1 / 2 / 3 / 4 / 5
    List (Subtitles Wide) : 0 / 0 / 0 / 0 / 0 / 0
    List (Subtitles Letterbox) : 0 / 0 / 0 / 0 / 0 / 0
    List (Subtitles Pan&Scan) : 0 / 0 / 0 / 0 / 0 / 0

    Menu #3
    ID : 102 (0x66) / 102 (0x66)
    List (Audio) : 102

    General
    Complete name : G:\DVD MUSICA\FullDisc\ACDC_DISC_1\VIDEO_TS\VTS_01_0.IFO
    Format : DVD Video
    Format profile : Program
    File size : 198 KiB

    Video
    ID : 224 (0xE0)
    Format : MPEG Video
    Format version : Version 2
    Bit rate mode : Variable
    Width : 720 pixels
    Height : 480 pixels
    Display aspect ratio : 4:3
    Frame rate : 29.970 fps
    Standard : NTSC

    Audio #1
    ID : 0 (0x0)
    Format : PCM
    Channel(s) : 2 channels
    Sampling rate : 48.0 KHz
    Language : English

    Audio #2

    Audio #3

    Audio #4

    Audio #5

    Audio #6

    Text #1
    ID : 32 (0x20)
    Format : RLE
    Format/Info : Run-length encoding
    Bit depth : 2 bits
    Language : English

    Text #2
    ID : 32 (0x20)
    Format : RLE
    Format/Info : Run-length encoding
    Bit depth : 2 bits
    Language : French

    Text #3
    ID : 32 (0x20)
    Format : RLE
    Format/Info : Run-length encoding
    Bit depth : 2 bits
    Language : German

    Text #4
    ID : 32 (0x20)
    Format : RLE
    Format/Info : Run-length encoding
    Bit depth : 2 bits
    Language : Spanish

    Text #5
    ID : 32 (0x20)
    Format : RLE
    Format/Info : Run-length encoding
    Bit depth : 2 bits
    Language : Italian

    Text #6
    ID : 32 (0x20)
    Format : RLE
    Format/Info : Run-length encoding
    Bit depth : 2 bits
    Language : Dutch

    Menu #1
    List (Audio) : 0
    List (Subtitles 4/3) : 0 / 1 / 2 / 3 / 4 / 5
    List (Subtitles Wide) : 0 / 0 / 0 / 0 / 0 / 0
    List (Subtitles Letterbox) : 0 / 0 / 0 / 0 / 0 / 0
    List (Subtitles Pan&Scan) : 0 / 0 / 0 / 0 / 0 / 0

    Menu #2
    List (Audio) : 0
    List (Subtitles 4/3) : 0 / 1 / 2 / 3 / 4 / 5
    List (Subtitles Wide) : 0 / 0 / 0 / 0 / 0 / 0
    List (Subtitles Letterbox) : 0 / 0 / 0 / 0 / 0 / 0
    List (Subtitles Pan&Scan) : 0 / 0 / 0 / 0 / 0 / 0

    Menu #3
    ID : 102 (0x66) / 102 (0x66)
    List (Audio) : 102

    General
    Complete name : G:\DVD MUSICA\FullDisc\ACDC_DISC_1\VIDEO_TS\VTS_01_0.VOB
    Format : MPEG-PS
    File size : 481 MiB

    Video
    ID : 224 (0xE0)
    Format : MPEG Video
    Format version : Version 2
    Format profile : Main@Main
    Format settings, BVOP : Yes
    Format settings, Matrix : Default
    Bit rate mode : Variable
    Bit rate : 7 500 Kbps
    Width : 720 pixels
    Height : 480 pixels
    Display aspect ratio : 4:3
    Frame rate : 29.970 fps
    Standard : NTSC
    Color space : YUV
    Chroma subsampling : 4:2:0
    Bit depth : 8 bits
    Scan type : Interlaced
    Scan order : Top Field First
    Bits/(Pixel*Frame) : 0.724

    Audio
    ID : 160 (0xA0)
    Format : PCM
    Format settings, Endianness : Big
    Format settings, Sign : Signed
    Muxing mode : DVD-Video
    Bit rate mode : Constant
    Bit rate : 1 536 Kbps
    Channel(s) : 2 channels
    Channel positions : Front: L R
    Sampling rate : 48.0 KHz
    Bit depth : 16 bits

    Text
    ID : 32 (0x20)
    Format : RLE
    Format/Info : Run-length encoding
    Video delay : 1s 501ms

    Menu

    General
    Complete name : G:\DVD MUSICA\FullDisc\ACDC_DISC_1\VIDEO_TS\VTS_01_1.VOB
    Format : MPEG-PS
    File size : 1 024 MiB
    Duration : 22mn 50s
    Overall bit rate : 6 268 Kbps

    Video
    ID : 224 (0xE0)
    Format : MPEG Video
    Format version : Version 2
    Format profile : Main@Main
    Format settings, BVOP : Yes
    Format settings, Matrix : Default
    Duration : 22mn 50s
    Bit rate mode : Variable
    Bit rate : 4 608 Kbps
    Width : 720 pixels
    Height : 480 pixels
    Display aspect ratio : 4:3
    Frame rate : 29.970 fps
    Standard : NTSC
    Color space : YUV
    Chroma subsampling : 4:2:0
    Bit depth : 8 bits
    Bits/(Pixel*Frame) : 0.445
    Stream size : 753 MiB (74%)

    Audio
    ID : 160 (0xA0)
    Format : PCM
    Format settings, Endianness : Big
    Format settings, Sign : Signed
    Muxing mode : DVD-Video
    Duration : 22mn 50s
    Bit rate mode : Constant
    Bit rate : 1 536 Kbps
    Channel(s) : 2 channels
    Channel positions : Front: L R
    Sampling rate : 48.0 KHz
    Bit depth : 16 bits
    Video delay : -49ms
    Stream size : 251 MiB (24%)

    Menu

    General
    Complete name : G:\DVD MUSICA\FullDisc\ACDC_DISC_1\VIDEO_TS\VTS_01_2.VOB
    Format : MPEG-PS
    File size : 1 024 MiB
    Duration : 25mn 53s
    Overall bit rate : 5 530 Kbps

    Video
    ID : 224 (0xE0)
    Format : MPEG Video
    Format version : Version 2
    Format profile : Main@Main
    Format settings, BVOP : Yes
    Format settings, Matrix : Default
    Format settings, GOP : M=3, N=15
    Duration : 25mn 53s
    Bit rate mode : Variable
    Bit rate : 3 884 Kbps
    Nominal bit rate : 9 800 Kbps
    Width : 720 pixels
    Height : 480 pixels
    Display aspect ratio : 4:3
    Frame rate : 29.970 fps
    Standard : NTSC
    Color space : YUV
    Chroma subsampling : 4:2:0
    Bit depth : 8 bits
    Scan type : Interlaced
    Scan order : Top Field First
    Bits/(Pixel*Frame) : 0.375
    Stream size : 719 MiB (70%)

    Audio
    ID : 160 (0xA0)
    Format : PCM
    Format settings, Endianness : Big
    Format settings, Sign : Signed
    Muxing mode : DVD-Video
    Duration : 25mn 53s
    Bit rate mode : Constant
    Bit rate : 1 536 Kbps
    Channel(s) : 2 channels
    Channel positions : Front: L R
    Sampling rate : 48.0 KHz
    Bit depth : 16 bits
    Video delay : -711ms
    Stream size : 284 MiB (28%)

    Menu

    General
    Complete name : G:\DVD MUSICA\FullDisc\ACDC_DISC_1\VIDEO_TS\VTS_01_3.VOB
    Format : MPEG-PS
    File size : 1 024 MiB
    Duration : 24mn 47s
    Overall bit rate : 5 774 Kbps

    Video
    ID : 224 (0xE0)
    Format : MPEG Video
    Format version : Version 2
    Format profile : Main@Main
    Format settings, BVOP : Yes
    Format settings, Matrix : Default
    Duration : 24mn 47s
    Bit rate mode : Variable
    Bit rate : 4 123 Kbps
    Nominal bit rate : 9 800 Kbps
    Width : 720 pixels
    Height : 480 pixels
    Display aspect ratio : 4:3
    Frame rate : 29.970 fps
    Standard : NTSC
    Color space : YUV
    Chroma subsampling : 4:2:0
    Bit depth : 8 bits
    Scan type : Interlaced
    Scan order : Top Field First
    Bits/(Pixel*Frame) : 0.398
    Stream size : 731 MiB (71%)

    Audio
    ID : 160 (0xA0)
    Format : PCM
    Format settings, Endianness : Big
    Format settings, Sign : Signed
    Muxing mode : DVD-Video
    Duration : 24mn 47s
    Bit rate mode : Constant
    Bit rate : 1 536 Kbps
    Channel(s) : 2 channels
    Channel positions : Front: L R
    Sampling rate : 48.0 KHz
    Bit depth : 16 bits
    Video delay : -700ms
    Stream size : 272 MiB (27%)

    Menu

    General
    Complete name : G:\DVD MUSICA\FullDisc\ACDC_DISC_1\VIDEO_TS\VTS_01_4.VOB
    Format : MPEG-PS
    File size : 1 024 MiB
    Duration : 23mn 53s
    Overall bit rate : 5 993 Kbps

    Video
    ID : 224 (0xE0)
    Format : MPEG Video
    Format version : Version 2
    Format profile : Main@Main
    Format settings, BVOP : Yes
    Format settings, Matrix : Default
    Format settings, GOP : M=3, N=15
    Duration : 23mn 53s
    Bit rate mode : Variable
    Bit rate : 4 337 Kbps
    Nominal bit rate : 9 800 Kbps
    Width : 720 pixels
    Height : 480 pixels
    Display aspect ratio : 4:3
    Frame rate : 29.970 fps
    Standard : NTSC
    Color space : YUV
    Chroma subsampling : 4:2:0
    Bit depth : 8 bits
    Scan type : Interlaced
    Scan order : Top Field First
    Bits/(Pixel*Frame) : 0.419
    Stream size : 741 MiB (72%)

    Audio
    ID : 160 (0xA0)
    Format : PCM
    Format settings, Endianness : Big
    Format settings, Sign : Signed
    Muxing mode : DVD-Video
    Duration : 23mn 53s
    Bit rate mode : Constant
    Bit rate : 1 536 Kbps
    Channel(s) : 2 channels
    Channel positions : Front: L R
    Sampling rate : 48.0 KHz
    Bit depth : 16 bits
    Video delay : -749ms
    Stream size : 262 MiB (26%)

    Menu

    General
    Complete name : G:\DVD MUSICA\FullDisc\ACDC_DISC_1\VIDEO_TS\VTS_01_5.VOB
    Format : MPEG-PS
    File size : 1 024 MiB
    Duration : 22mn 54s
    Overall bit rate : 6 251 Kbps

    Video
    ID : 224 (0xE0)
    Format : MPEG Video
    Format version : Version 2
    Format profile : Main@Main
    Format settings, BVOP : Yes
    Format settings, Matrix : Default
    Format settings, GOP : M=3, N=15
    Duration : 22mn 54s
    Bit rate mode : Variable
    Bit rate : 4 591 Kbps
    Nominal bit rate : 9 800 Kbps
    Width : 720 pixels
    Height : 480 pixels
    Display aspect ratio : 4:3
    Frame rate : 29.970 fps
    Standard : NTSC
    Color space : YUV
    Chroma subsampling : 4:2:0
    Bit depth : 8 bits
    Scan type : Interlaced
    Scan order : Top Field First
    Bits/(Pixel*Frame) : 0.443
    Stream size : 752 MiB (73%)

    Audio
    ID : 160 (0xA0)
    Format : PCM
    Format settings, Endianness : Big
    Format settings, Sign : Signed
    Muxing mode : DVD-Video
    Duration : 22mn 54s
    Bit rate mode : Constant
    Bit rate : 1 536 Kbps
    Channel(s) : 2 channels
    Channel positions : Front: L R
    Sampling rate : 48.0 KHz
    Bit depth : 16 bits
    Video delay : -442ms
    Stream size : 252 MiB (25%)

    Text #1
    ID : 32 (0x20)
    Format : RLE
    Format/Info : Run-length encoding

    Text #2
    ID : 33 (0x21)
    Format : RLE
    Format/Info : Run-length encoding

    Text #3
    ID : 34 (0x22)
    Format : RLE
    Format/Info : Run-length encoding

    Text #4
    ID : 35 (0x23)
    Format : RLE
    Format/Info : Run-length encoding

    Text #5
    ID : 36 (0x24)
    Format : RLE
    Format/Info : Run-length encoding

    Text #6
    ID : 37 (0x25)
    Format : RLE
    Format/Info : Run-length encoding

    Menu

    General
    Complete name : G:\DVD MUSICA\FullDisc\ACDC_DISC_1\VIDEO_TS\VTS_01_6.VOB
    Format : MPEG-PS
    File size : 1 024 MiB
    Duration : 23mn 0s
    Overall bit rate : 6 221 Kbps

    Video
    ID : 224 (0xE0)
    Format : MPEG Video
    Format version : Version 2
    Format profile : Main@Main
    Format settings, BVOP : Yes
    Format settings, Matrix : Default
    Duration : 23mn 0s
    Bit rate mode : Variable
    Bit rate : 4 562 Kbps
    Nominal bit rate : 9 800 Kbps
    Width : 720 pixels
    Height : 480 pixels
    Display aspect ratio : 4:3
    Frame rate : 29.970 fps
    Standard : NTSC
    Color space : YUV
    Chroma subsampling : 4:2:0
    Bit depth : 8 bits
    Scan type : Interlaced
    Scan order : Top Field First
    Bits/(Pixel*Frame) : 0.440
    Stream size : 751 MiB (73%)

    Audio
    ID : 160 (0xA0)
    Format : PCM
    Format settings, Endianness : Big
    Format settings, Sign : Signed
    Muxing mode : DVD-Video
    Duration : 23mn 0s
    Bit rate mode : Constant
    Bit rate : 1 536 Kbps
    Channel(s) : 2 channels
    Channel positions : Front: L R
    Sampling rate : 48.0 KHz
    Bit depth : 16 bits
    Video delay : -687ms
    Stream size : 253 MiB (25%)

    Text #1
    ID : 32 (0x20)
    Format : RLE
    Format/Info : Run-length encoding
    Video delay : 300ms

    Text #2
    ID : 33 (0x21)
    Format : RLE
    Format/Info : Run-length encoding
    Video delay : 300ms

    Text #3
    ID : 34 (0x22)
    Format : RLE
    Format/Info : Run-length encoding
    Video delay : 300ms

    Text #4
    ID : 35 (0x23)
    Format : RLE
    Format/Info : Run-length encoding
    Video delay : 300ms

    Text #5
    ID : 36 (0x24)
    Format : RLE
    Format/Info : Run-length encoding
    Video delay : 300ms

    Text #6
    ID : 37 (0x25)
    Format : RLE
    Format/Info : Run-length encoding
    Video delay : 300ms

    Menu

    General
    Complete name : G:\DVD MUSICA\FullDisc\ACDC_DISC_1\VIDEO_TS\VTS_01_7.VOB
    Format : MPEG-PS
    File size : 481 MiB

    Video
    ID : 224 (0xE0)
    Format : MPEG Video
    Format version : Version 2
    Format profile : Main@Main
    Format settings, BVOP : Yes
    Format settings, Matrix : Default
    Format settings, GOP : M=2, N=14
    Bit rate mode : Variable
    Bit rate : 9 800 Kbps
    Width : 720 pixels
    Height : 480 pixels
    Display aspect ratio : 4:3
    Frame rate : 29.970 fps
    Standard : NTSC
    Color space : YUV
    Chroma subsampling : 4:2:0
    Bit depth : 8 bits
    Scan type : Interlaced
    Scan order : Top Field First
    Bits/(Pixel*Frame) : 0.946

    Audio
    ID : 160 (0xA0)
    Format : PCM
    Format settings, Endianness : Big
    Format settings, Sign : Signed
    Muxing mode : DVD-Video
    Bit rate mode : Constant
    Bit rate : 1 536 Kbps
    Channel(s) : 2 channels
    Channel positions : Front: L R
    Sampling rate : 48.0 KHz
    Bit depth : 16 bits
    Video delay : -650ms

    Menu


    Mediainfo DVD2

    General
    Complete name : G:\DVD MUSICA\FullDisc\ACDC_DISC_2\VIDEO_TS\VIDEO_TS.BUP
    Format : DVD Video
    Format profile : Menu
    File size : 8.00 KiB

    Video
    ID : 224 (0xE0)
    Format : MPEG Video
    Format version : Version 2
    Bit rate mode : Variable
    Width : 720 pixels
    Height : 480 pixels
    Display aspect ratio : 4:3
    Frame rate : 29.970 fps
    Standard : NTSC

    Audio
    Format : PCM
    Channel(s) : 2 channels
    Sampling rate : 48.0 KHz

    General
    Complete name : G:\DVD MUSICA\FullDisc\ACDC_DISC_2\VIDEO_TS\VIDEO_TS.IFO
    Format : DVD Video
    Format profile : Menu
    File size : 8.00 KiB

    Video
    ID : 224 (0xE0)
    Format : MPEG Video
    Format version : Version 2
    Bit rate mode : Variable
    Width : 720 pixels
    Height : 480 pixels
    Display aspect ratio : 4:3
    Frame rate : 29.970 fps
    Standard : NTSC

    Audio
    Format : PCM
    Channel(s) : 2 channels
    Sampling rate : 48.0 KHz

    General
    Complete name : G:\DVD MUSICA\FullDisc\ACDC_DISC_2\VIDEO_TS\VTS_01_0.BUP
    Format : DVD Video
    Format profile : Program
    File size : 232 KiB

    Video
    ID : 224 (0xE0)
    Format : MPEG Video
    Format version : Version 2
    Bit rate mode : Variable
    Width : 720 pixels
    Height : 480 pixels
    Display aspect ratio : 4:3
    Frame rate : 29.970 fps
    Standard : NTSC

    Audio #1
    ID : 0 (0x0)
    Format : PCM
    Channel(s) : 2 channels
    Sampling rate : 48.0 KHz
    Language : English

    Audio #2

    Audio #3

    Audio #4

    Audio #5

    Audio #6

    Text #1
    ID : 32 (0x20)
    Format : RLE
    Format/Info : Run-length encoding
    Bit depth : 2 bits
    Language : English

    Text #2
    ID : 32 (0x20)
    Format : RLE
    Format/Info : Run-length encoding
    Bit depth : 2 bits
    Language : French

    Text #3
    ID : 32 (0x20)
    Format : RLE
    Format/Info : Run-length encoding
    Bit depth : 2 bits
    Language : German

    Text #4
    ID : 32 (0x20)
    Format : RLE
    Format/Info : Run-length encoding
    Bit depth : 2 bits
    Language : Spanish

    Text #5
    ID : 32 (0x20)
    Format : RLE
    Format/Info : Run-length encoding
    Bit depth : 2 bits
    Language : Italian

    Text #6
    ID : 32 (0x20)
    Format : RLE
    Format/Info : Run-length encoding
    Bit depth : 2 bits
    Language : Dutch

    Menu #1
    List (Audio) : 0
    List (Subtitles 4/3) : 0 / 1 / 2 / 3 / 4 / 5
    List (Subtitles Wide) : 0 / 0 / 0 / 0 / 0 / 0
    List (Subtitles Letterbox) : 0 / 0 / 0 / 0 / 0 / 0
    List (Subtitles Pan&Scan) : 0 / 0 / 0 / 0 / 0 / 0

    Menu #2
    List (Audio) : 0
    List (Subtitles 4/3) : 0 / 1 / 2 / 3 / 4 / 5
    List (Subtitles Wide) : 0 / 0 / 0 / 0 / 0 / 0
    List (Subtitles Letterbox) : 0 / 0 / 0 / 0 / 0 / 0
    List (Subtitles Pan&Scan) : 0 / 0 / 0 / 0 / 0 / 0

    Menu #3
    ID : 66 (0x42) / 66 (0x42)
    List (Audio) : 66

    General
    Complete name : G:\DVD MUSICA\FullDisc\ACDC_DISC_2\VIDEO_TS\VTS_01_0.IFO
    Format : DVD Video
    Format profile : Program
    File size : 232 KiB

    Video
    ID : 224 (0xE0)
    Format : MPEG Video
    Format version : Version 2
    Bit rate mode : Variable
    Width : 720 pixels
    Height : 480 pixels
    Display aspect ratio : 4:3
    Frame rate : 29.970 fps
    Standard : NTSC

    Audio #1
    ID : 0 (0x0)
    Format : PCM
    Channel(s) : 2 channels
    Sampling rate : 48.0 KHz
    Language : English

    Audio #2

    Audio #3

    Audio #4

    Audio #5

    Audio #6

    Text #1
    ID : 32 (0x20)
    Format : RLE
    Format/Info : Run-length encoding
    Bit depth : 2 bits
    Language : English

    Text #2
    ID : 32 (0x20)
    Format : RLE
    Format/Info : Run-length encoding
    Bit depth : 2 bits
    Language : French

    Text #3
    ID : 32 (0x20)
    Format : RLE
    Format/Info : Run-length encoding
    Bit depth : 2 bits
    Language : German

    Text #4
    ID : 32 (0x20)
    Format : RLE
    Format/Info : Run-length encoding
    Bit depth : 2 bits
    Language : Spanish

    Text #5
    ID : 32 (0x20)
    Format : RLE
    Format/Info : Run-length encoding
    Bit depth : 2 bits
    Language : Italian

    Text #6
    ID : 32 (0x20)
    Format : RLE
    Format/Info : Run-length encoding
    Bit depth : 2 bits
    Language : Dutch

    Menu #1
    List (Audio) : 0
    List (Subtitles 4/3) : 0 / 1 / 2 / 3 / 4 / 5
    List (Subtitles Wide) : 0 / 0 / 0 / 0 / 0 / 0
    List (Subtitles Letterbox) : 0 / 0 / 0 / 0 / 0 / 0
    List (Subtitles Pan&Scan) : 0 / 0 / 0 / 0 / 0 / 0

    Menu #2
    List (Audio) : 0
    List (Subtitles 4/3) : 0 / 1 / 2 / 3 / 4 / 5
    List (Subtitles Wide) : 0 / 0 / 0 / 0 / 0 / 0
    List (Subtitles Letterbox) : 0 / 0 / 0 / 0 / 0 / 0
    List (Subtitles Pan&Scan) : 0 / 0 / 0 / 0 / 0 / 0

    Menu #3
    ID : 66 (0x42) / 66 (0x42)
    List (Audio) : 66

    General
    Complete name : G:\DVD MUSICA\FullDisc\ACDC_DISC_2\VIDEO_TS\VTS_01_0.VOB
    Format : MPEG-PS
    File size : 513 MiB

    Video
    ID : 224 (0xE0)
    Format : MPEG Video
    Format version : Version 2
    Format profile : Main@Main
    Format settings, BVOP : Yes
    Format settings, Matrix : Default
    Bit rate mode : Variable
    Bit rate : 7 500 Kbps
    Width : 720 pixels
    Height : 480 pixels
    Display aspect ratio : 4:3
    Frame rate : 29.970 fps
    Standard : NTSC
    Color space : YUV
    Chroma subsampling : 4:2:0
    Bit depth : 8 bits
    Scan type : Interlaced
    Scan order : Top Field First
    Bits/(Pixel*Frame) : 0.724

    Audio
    ID : 160 (0xA0)
    Format : PCM
    Format settings, Endianness : Big
    Format settings, Sign : Signed
    Muxing mode : DVD-Video
    Bit rate mode : Constant
    Bit rate : 1 536 Kbps
    Channel(s) : 2 channels
    Channel positions : Front: L R
    Sampling rate : 48.0 KHz
    Bit depth : 16 bits

    Text
    ID : 32 (0x20)
    Format : RLE
    Format/Info : Run-length encoding
    Video delay : 1s 501ms

    Menu

    General
    Complete name : G:\DVD MUSICA\FullDisc\ACDC_DISC_2\VIDEO_TS\VTS_01_1.VOB
    Format : MPEG-PS
    File size : 1 024 MiB
    Duration : 25mn 2s
    Overall bit rate : 5 716 Kbps

    Video
    ID : 224 (0xE0)
    Format : MPEG Video
    Format version : Version 2
    Format profile : Main@Main
    Format settings, BVOP : Yes
    Format settings, Matrix : Default
    Duration : 25mn 2s
    Bit rate mode : Variable
    Bit rate : 4 067 Kbps
    Width : 720 pixels
    Height : 480 pixels
    Display aspect ratio : 4:3
    Frame rate : 29.970 fps
    Standard : NTSC
    Color space : YUV
    Chroma subsampling : 4:2:0
    Bit depth : 8 bits
    Bits/(Pixel*Frame) : 0.393
    Stream size : 728 MiB (71%)

    Audio
    ID : 160 (0xA0)
    Format : PCM
    Format settings, Endianness : Big
    Format settings, Sign : Signed
    Muxing mode : DVD-Video
    Duration : 25mn 2s
    Bit rate mode : Constant
    Bit rate : 1 536 Kbps
    Channel(s) : 2 channels
    Channel positions : Front: L R
    Sampling rate : 48.0 KHz
    Bit depth : 16 bits
    Stream size : 275 MiB (27%)

    Menu

    General
    Complete name : G:\DVD MUSICA\FullDisc\ACDC_DISC_2\VIDEO_TS\VTS_01_2.VOB
    Format : MPEG-PS
    File size : 1 024 MiB
    Duration : 25mn 53s
    Overall bit rate : 5 528 Kbps

    Video
    ID : 224 (0xE0)
    Format : MPEG Video
    Format version : Version 2
    Format profile : Main@Main
    Format settings, BVOP : Yes
    Format settings, Matrix : Default
    Format settings, GOP : M=3, N=15
    Duration : 25mn 53s
    Bit rate mode : Variable
    Bit rate : 3 882 Kbps
    Nominal bit rate : 9 800 Kbps
    Width : 720 pixels
    Height : 480 pixels
    Display aspect ratio : 4:3
    Frame rate : 29.970 fps
    Standard : NTSC
    Color space : YUV
    Chroma subsampling : 4:2:0
    Bit depth : 8 bits
    Scan type : Interlaced
    Scan order : Top Field First
    Bits/(Pixel*Frame) : 0.375
    Stream size : 719 MiB (70%)

    Audio
    ID : 160 (0xA0)
    Format : PCM
    Format settings, Endianness : Big
    Format settings, Sign : Signed
    Muxing mode : DVD-Video
    Duration : 25mn 53s
    Bit rate mode : Constant
    Bit rate : 1 536 Kbps
    Channel(s) : 2 channels
    Channel positions : Front: L R
    Sampling rate : 48.0 KHz
    Bit depth : 16 bits
    Video delay : -805ms
    Stream size : 285 MiB (28%)

    Menu

    General
    Complete name : G:\DVD MUSICA\FullDisc\ACDC_DISC_2\VIDEO_TS\VTS_01_3.VOB
    Format : MPEG-PS
    File size : 1 024 MiB
    Duration : 25mn 26s
    Overall bit rate : 5 627 Kbps

    Video
    ID : 224 (0xE0)
    Format : MPEG Video
    Format version : Version 2
    Format profile : Main@Main
    Format settings, BVOP : Yes
    Format settings, Matrix : Default
    Duration : 25mn 26s
    Bit rate mode : Variable
    Bit rate : 3 979 Kbps
    Nominal bit rate : 9 800 Kbps
    Width : 720 pixels
    Height : 480 pixels
    Display aspect ratio : 4:3
    Frame rate : 29.970 fps
    Standard : NTSC
    Color space : YUV
    Chroma subsampling : 4:2:0
    Bit depth : 8 bits
    Scan type : Interlaced
    Scan order : Top Field First
    Bits/(Pixel*Frame) : 0.384
    Stream size : 724 MiB (71%)

    Audio
    ID : 160 (0xA0)
    Format : PCM
    Format settings, Endianness : Big
    Format settings, Sign : Signed
    Muxing mode : DVD-Video
    Duration : 25mn 26s
    Bit rate mode : Constant
    Bit rate : 1 536 Kbps
    Channel(s) : 2 channels
    Channel positions : Front: L R
    Sampling rate : 48.0 KHz
    Bit depth : 16 bits
    Video delay : -567ms
    Stream size : 280 MiB (27%)

    Menu

    General
    Complete name : G:\DVD MUSICA\FullDisc\ACDC_DISC_2\VIDEO_TS\VTS_01_4.VOB
    Format : MPEG-PS
    File size : 1 024 MiB
    Duration : 22mn 6s
    Overall bit rate : 6 475 Kbps

    Video
    ID : 224 (0xE0)
    Format : MPEG Video
    Format version : Version 2
    Format profile : Main@Main
    Format settings, BVOP : Yes
    Format settings, Matrix : Default
    Format settings, GOP : M=3, N=15
    Duration : 22mn 6s
    Bit rate mode : Variable
    Bit rate : 4 811 Kbps
    Nominal bit rate : 9 800 Kbps
    Width : 720 pixels
    Height : 480 pixels
    Display aspect ratio : 4:3
    Frame rate : 29.970 fps
    Standard : NTSC
    Color space : YUV
    Chroma subsampling : 4:2:0
    Bit depth : 8 bits
    Scan type : Interlaced
    Scan order : Top Field First
    Bits/(Pixel*Frame) : 0.464
    Stream size : 761 MiB (74%)

    Audio
    ID : 160 (0xA0)
    Format : PCM
    Format settings, Endianness : Big
    Format settings, Sign : Signed
    Muxing mode : DVD-Video
    Duration : 22mn 6s
    Bit rate mode : Constant
    Bit rate : 1 536 Kbps
    Channel(s) : 2 channels
    Channel positions : Front: L R
    Sampling rate : 48.0 KHz
    Bit depth : 16 bits
    Video delay : -461ms
    Stream size : 243 MiB (24%)

    Menu

    General
    Complete name : G:\DVD MUSICA\FullDisc\ACDC_DISC_2\VIDEO_TS\VTS_01_5.VOB
    Format : MPEG-PS
    File size : 1 024 MiB
    Duration : 22mn 24s
    Overall bit rate : 6 387 Kbps

    Video
    ID : 224 (0xE0)
    Format : MPEG Video
    Format version : Version 2
    Format profile : Main@Main
    Format settings, BVOP : Yes
    Format settings, Matrix : Default
    Format settings, GOP : M=3, N=15
    Duration : 22mn 24s
    Bit rate mode : Variable
    Bit rate : 4 724 Kbps
    Nominal bit rate : 9 800 Kbps
    Width : 720 pixels
    Height : 480 pixels
    Display aspect ratio : 4:3
    Frame rate : 29.970 fps
    Standard : NTSC
    Color space : YUV
    Chroma subsampling : 4:2:0
    Bit depth : 8 bits
    Scan type : Interlaced
    Scan order : Top Field First
    Bits/(Pixel*Frame) : 0.456
    Stream size : 757 MiB (74%)

    Audio
    ID : 160 (0xA0)
    Format : PCM
    Format settings, Endianness : Big
    Format settings, Sign : Signed
    Muxing mode : DVD-Video
    Duration : 22mn 24s
    Bit rate mode : Constant
    Bit rate : 1 536 Kbps
    Channel(s) : 2 channels
    Channel positions : Front: L R
    Sampling rate : 48.0 KHz
    Bit depth : 16 bits
    Video delay : -676ms
    Stream size : 246 MiB (24%)

    Menu

    General
    Complete name : G:\DVD MUSICA\FullDisc\ACDC_DISC_2\VIDEO_TS\VTS_01_6.VOB
    Format : MPEG-PS
    File size : 1 024 MiB
    Duration : 15mn 3s
    Overall bit rate : 9 512 Kbps

    Video
    ID : 224 (0xE0)
    Format : MPEG Video
    Format version : Version 2
    Format profile : Main@Main
    Format settings, BVOP : Yes
    Format settings, Matrix : Default
    Format settings, GOP : M=3, N=15
    Duration : 15mn 3s
    Bit rate mode : Variable
    Bit rate : 7 787 Kbps
    Nominal bit rate : 9 800 Kbps
    Width : 720 pixels
    Height : 480 pixels
    Display aspect ratio : 4:3
    Frame rate : 29.970 fps
    Standard : NTSC
    Color space : YUV
    Chroma subsampling : 4:2:0
    Bit depth : 8 bits
    Scan type : Interlaced
    Scan order : Top Field First
    Bits/(Pixel*Frame) : 0.752
    Stream size : 838 MiB (82%)

    Audio
    ID : 160 (0xA0)
    Format : PCM
    Format settings, Endianness : Big
    Format settings, Sign : Signed
    Muxing mode : DVD-Video
    Duration : 15mn 3s
    Bit rate mode : Constant
    Bit rate : 1 536 Kbps
    Channel(s) : 2 channels
    Channel positions : Front: L R
    Sampling rate : 48.0 KHz
    Bit depth : 16 bits
    Video delay : -588ms
    Stream size : 165 MiB (16%)

    Menu

    General
    Complete name : G:\DVD MUSICA\FullDisc\ACDC_DISC_2\VIDEO_TS\VTS_01_7.VOB
    Format : MPEG-PS
    File size : 529 MiB

    Video
    ID : 224 (0xE0)
    Format : MPEG Video
    Format version : Version 2
    Format profile : Main@Main
    Format settings, BVOP : Yes
    Format settings, Matrix : Default
    Format settings, GOP : M=3, N=15
    Bit rate mode : Variable
    Bit rate : 9 800 Kbps
    Width : 720 pixels
    Height : 480 pixels
    Display aspect ratio : 4:3
    Frame rate : 29.970 fps
    Standard : NTSC
    Color space : YUV
    Chroma subsampling : 4:2:0
    Bit depth : 8 bits
    Scan type : Interlaced
    Scan order : Top Field First
    Bits/(Pixel*Frame) : 0.946

    Audio
    ID : 160 (0xA0)
    Format : PCM
    Format settings, Endianness : Big
    Format settings, Sign : Signed
    Muxing mode : DVD-Video
    Bit rate mode : Constant
    Bit rate : 1 536 Kbps
    Channel(s) : 2 channels
    Channel positions : Front: L R
    Sampling rate : 48.0 KHz
    Bit depth : 16 bits
    Video delay : -703ms

    Text #1
    ID : 32 (0x20)
    Format : RLE
    Format/Info : Run-length encoding
    Video delay : 1s 168ms

    Text #2
    ID : 33 (0x21)
    Format : RLE
    Format/Info : Run-length encoding
    Video delay : 1s 168ms

    Text #3
    ID : 34 (0x22)
    Format : RLE
    Format/Info : Run-length encoding
    Video delay : 1s 168ms

    Text #4
    ID : 35 (0x23)
    Format : RLE
    Format/Info : Run-length encoding
    Video delay : 1s 168ms

    Text #5
    ID : 36 (0x24)
    Format : RLE
    Format/Info : Run-length encoding
    Video delay : 1s 168ms

    Text #6
    ID : 37 (0x25)
    Format : RLE
    Format/Info : Run-length encoding
    Video delay : 1s 168ms

    Menu


    Tamaño : 12.85GB
    Formato : NTCS
    Numero de DVD´s : 2
    Imagen : 720x480
    Audio : PCM
    Contendor: DLC
    Servidor : Megaupload


    código:
    http://www.***************/?d=2A6HRCFT
    Última edición por ShikabaNe; 12/09/2010 a las 23:31

    Cualquier tema, duda y información postearlo en el aporte.
    No olvideis dar al boton de gracias y comentar.


  2. #2
    Usuario Max Avatar de ShikabaNe
    Fecha de ingreso
    10 feb, 09
    Mensajes
    1,481
    Poder de reputación
    573
    Re: AC \ DC Plug Me In [2DVD9]
    queda mejor la mediainfo en un spoiler ^^
    ╚╗╔╝║║♫═╦╦╦╔╗
    ╔╝╚╗♫╚╣║║║║╔╣ ®Ø©K
    ╚═♫╝╚═╩═╩♫╩═╝

    "I think we have labeled as many times as a thrash metal band that ever will be remembered as a band Baladites"
    (Lars Ulrich, Metallica, 1991)



    [Solo usuarios registrados a DowntWarez.Com puede ver los links. ]
    [Solo usuarios registrados a DowntWarez.Com puede ver los links. ]

Temas similares

  1. ACDSee 10 Photo Manager + Español
    Por KASPER en el foro Diseño General
    Respuestas: 10
    Último mensaje: 25/10/2012, 03:11
  2. Ayuda con mi pc se cuelga con los juegos
    Por senseys en el foro Soporte Hardware y Software
    Respuestas: 18
    Último mensaje: 13/05/2011, 09:32
  3. Auto-Tune 5 (Pitch Correction Plug In)
    Por neoware en el foro Audio & Video
    Respuestas: 2
    Último mensaje: 26/02/2011, 22:06
  4. Ayuda Controlador de Video de Compaq Deskpro
    Por Skinet en el foro Soporte Hardware y Software
    Respuestas: 5
    Último mensaje: 11/07/2009, 05:42
  5. (SOLUCIONADO) ACDSee 8
    Por nandux en el foro Pedidos de Programas
    Respuestas: 1
    Último mensaje: 10/04/2008, 19:00

Etiquetas para este tema

Permisos de Publicación

  • No puedes crear nuevos temas
  • No puedes responder temas
  • No puedes subir archivos adjuntos
  • No puedes editar tus mensajes
  •