TITULO ORIGINAL Safe Haven
AÑO 2013
PAIS usa
DURACIÓN 115 M.
DIRECTOR Lasse Hallström
GUIÓN Leslie Bohem (Novela: Nicholas Sparks)
MUSICA Deborah Lurie
FOTOGRAFIATerry Stacey
REPARTO Julianne Hough, Josh Duhamel, Cobie Smulders, David Lyons, Irene Ziegler, Red West, Noah Lomax, Mimi Kirkland, Robin Mullins, Cullen Moss, Ric Reitz
PRODUCTORA Nicholas Sparks Productions / Relativity Media / Temple Hill Entertainment
PREMIOS
GENERO Romance | Drama romántico
SINOPSIS: Katie (Julianne Hough), una bella joven con un oscuro pasado, llega al pequeño pueblo costero de Southport, en Carolina del Norte. Allí conoce al apuesto Alex (Josh Duhamel), un joven viudo de buen corazón, y a una viuda que le enseñará a enfrentarse a las pesadillas que la acechan. Adaptación de una nueva novela de Nicholas Sparks.








RIPEO PROPIO
Formato: Mkv
Tamaño: 3 GB
Resolucion: 1280 x 528
Audio 1: Español AC3 384 kbps
Audio 2: Ingles AC3 384 kbps
Subtitulos: Español,Español Forzados,Ingles




MEDIAINFO
código:
Complete name                            : Lugar.refugiarse.m720p.xt.mkv
Format                                   : Matroska
Format version                           : Version 2
File size                                : 3.05 GiB
Duration                                 : 1h 56mn
Overall bit rate                         : 3 744 Kbps
Movie name                               : Lug.refugiarse.m720p.xt
Encoded date                             : UTC 2013-09-25 15:55:35
Writing application                      : mkvmerge v5.8.0 ('No Sleep / Pillow') built on Sep  2 2012 15:37:04
Writing library                          : libebml v1.2.3 + libmatroska v1.3.0


Video
ID                                       : 1
Format                                   : AVC
Format/Info                              : Advanced Video Codec
Format profile                           : High@L4.1
Format settings, CABAC                   : Yes
Format settings, ReFrames                : 4 frames
Muxing mode                              : Header stripping
Codec ID                                 : V_MPEG4/ISO/AVC
Duration                                 : 1h 56mn
Bit rate                                 : 3 000 Kbps
Width                                    : 1 280 pixels
Height                                   : 528 pixels
Display aspect ratio                     : 2.40:1
Original display aspect ratio            : 2.40:1
Frame rate mode                          : Constant
Frame rate                               : 23.976 fps
Color space                              : YUV
Chroma subsampling                       : 4:2:0
Bit depth                                : 8 bits
Scan type                                : Progressive
Bits/(Pixel*Frame)                       : 0.185
Stream size                              : 2.36 GiB (77%)
Title                                    : xt
Writing library                          : x264 core 132 r2310 76a5c3a
Encoding settings                        : cabac=1 / ref=5 / deblock=1:-1:-1 / analyse=0x3:0x133 / me=hex / subme=5 / psy=1 / psy_rd=1.00:0.00 / mixed_ref=1 / me_range=16 / chroma_me=1 / trellis=1 / 8x8dct=1 / cqm=0 / deadzone=21,11 / fast_pskip=1 / chroma_qp_offset=0 / threads=12 / lookahead_threads=3 / sliced_threads=0 / nr=0 / decimate=1 / interlaced=0 / bluray_compat=0 / constrained_intra=0 / bframes=8 / b_pyramid=1 / b_adapt=1 / b_bias=0 / direct=3 / weightb=1 / open_gop=0 / weightp=2 / keyint=250 / keyint_min=25 / scenecut=40 / intra_refresh=0 / rc_lookahead=40 / rc=2pass / mbtree=1 / bitrate=3000 / ratetol=1.0 / qcomp=0.60 / qpmin=0 / qpmax=69 / qpstep=4 / cplxblur=20.0 / qblur=0.5 / ip_ratio=1.40 / aq=1:1.00
Language                                 : Spanish
Default                                  : Yes
Forced                                   : No


Audio #1
ID                                       : 2
Format                                   : AC-3
Format/Info                              : Audio Coding 3
Mode extension                           : CM (complete main)
Format settings, Endianness              : Big
Muxing mode                              : Header stripping
Codec ID                                 : A_AC3
Duration                                 : 1h 56mn
Bit rate mode                            : Constant
Bit rate                                 : 384 Kbps
Channel count                            : 6 channels
Channel positions                        : Front: L C R, Side: L R, LFE
Sampling rate                            : 48.0 KHz
Bit depth                                : 16 bits
Compression mode                         : Lossy
Stream size                              : 320 MiB (10%)
Language                                 : Spanish
Default                                  : Yes
Forced                                   : No


Audio #2
ID                                       : 3
Format                                   : AC-3
Format/Info                              : Audio Coding 3
Mode extension                           : CM (complete main)
Format settings, Endianness              : Big
Muxing mode                              : Header stripping
Codec ID                                 : A_AC3
Duration                                 : 1h 56mn
Bit rate mode                            : Constant
Bit rate                                 : 384 Kbps
Channel count                            : 6 channels
Channel positions                        : Front: L C R, Side: L R, LFE
Sampling rate                            : 48.0 KHz
Bit depth                                : 16 bits
Compression mode                         : Lossy
Stream size                              : 320 MiB (10%)
Language                                 : English
Default                                  : No
Forced                                   : No


Text #1
ID                                       : 4
Format                                   : UTF-8
Codec ID                                 : S_TEXT/UTF8
Codec ID/Info                            : UTF-8 Plain Text
Title                                    : Forzados
Language                                 : Spanish
Default                                  : Yes
Forced                                   : No


Text #2
ID                                       : 5
Format                                   : UTF-8
Codec ID                                 : S_TEXT/UTF8
Codec ID/Info                            : UTF-8 Plain Text
Language                                 : Spanish
Default                                  : No
Forced                                   : No


Text #3
ID                                       : 6
Format                                   : UTF-8
Codec ID                                 : S_TEXT/UTF8
Codec ID/Info                            : UTF-8 Plain Text
Language                                 : English
Default                                  : No
Forced                                   : No










95 % enlaces free mixtos




SUBIDO ES PARTES DE 750 MB Y DE 100 MB


En putlocker Faltan 1 O 2 Archivos que Podeis Descargar Del Resto De Servidores Son Intercambiables





SIN LINKBUCKS,ADF.LY NI ROOLLOS PUBLICITARIOS




ENLACES AQUI SIEMPRE ACTIVOS


[Solo usuarios registrados a DowntWarez.Com puede ver los links. ]










================================================== ================
Descargar con JDownloader,si no lo teneis,lo podeis pillar de aqui


[Solo usuarios registrados a DowntWarez.Com puede ver los links. ]


Si quieres bajar a toda velocidad compra una premiun en cualquiera de mis enlaces




SI NO TE VAN LOS ENLACES PRUEBA ASI

MEJOR COMENTALO AQUI O MANDAME UN MP Y LOS RESUBO